#TITLE:MAX 888;
#SUBTITLE:Digital Ultramix;
#ARTIST:ZZaxx726;
#TITLETRANSLIT:;
#SUBTITLETRANSLIT:;
#ARTISTTRANSLIT:;
#CREDIT:;
#BANNER:bn.bmp;
#BACKGROUND:bg.bmp;
#LYRICSPATH:;
#CDTITLE:;
#MUSIC:Max 888 (Digital Ultramix).mp3;
#OFFSET:0.000;
#SAMPLESTART:100.000;
#SAMPLELENGTH:12.000;
#SELECTABLE:YES;
#BPMS:0.000=300.000,0.250=5.000,1.063=300.000,22.500=310.000,39.000=320.000,51.000=341.001,63.000=350.001,79.000=364.001,96.000=385.001,101.000=888.014,283.000=17.003,284.000=300.003,285.938=5.003,286.125=300.002,355.500=-174.018,356.500=589.998,403.000=5.002,403.833=300.002,406.000=5.002,406.083=300.002,409.000=5.002,409.125=300.002,410.750=888.013,412.000=300.001,416.000=270.002,416.500=250.002,417.000=230.001,417.500=210.001,418.000=205.001,439.500=250.002,440.000=316.001,471.000=400.000,564.500=152.002,569.500=162.001,600.000=400.000,607.500=290.001,624.000=240.002,634.500=250.002,648.500=275.001,661.000=285.001,671.000=400.001,693.000=370.001,707.000=400.000,813.000=20.001,813.667=5.001,813.813=2.001,814.000=100.001,814.375=200.002,814.625=300.001,856.000=722.995,1104.000=888.013,1370.333=847.573,1370.667=827.574,1371.000=813.974,1371.333=798.774,1371.667=776.375,1372.000=761.175,1372.333=747.575,1372.667=732.375,1373.000=716.375,1373.333=702.776,1373.667=690.776,1374.000=677.976,1374.333=658.776,1374.667=637.977,1375.000=617.977,1375.333=598.777,1375.667=576.378,1376.000=557.178,1376.333=541.178,1376.667=517.178,1377.000=497.979,1377.333=469.179,1377.667=439.580,1378.000=405.980,1378.333=377.181,1378.667=358.781,1379.000=336.381,1379.333=316.382,1379.667=298.782,1380.000=278.782,1380.333=276.382,1380.667=274.782,1381.000=273.982,1381.333=271.582,1381.667=270.782,1382.000=269.982,1382.333=320.381,1382.667=387.580,1383.000=351.781,1383.333=337.401,1383.667=333.181,1384.000=326.781,1384.333=321.981,1384.667=316.382,1385.000=310.782,1385.333=305.182,1385.667=290.782,1386.000=284.382,1386.333=277.182,1386.667=271.582,1387.000=265.982,1387.333=261.382,1387.667=259.003,1388.000=236.382,1388.333=223.582,1388.667=216.382,1389.000=213.182,1389.333=207.222,1389.667=200.002,1390.000=190.002,1390.333=170.002,1390.667=165.002,1391.000=160.002,1391.333=155.002,1391.667=150.002,1392.000=130.002,1392.333=100.002,1392.667=90.002,1393.000=85.002,1393.333=80.002,1393.667=75.002,1394.000=70.002,1394.333=65.002,1394.667=60.002,1395.000=55.002,1395.333=50.002,1395.667=45.002,1396.000=40.002,1396.333=35.002,1396.667=30.002,1397.000=20.002,1397.333=15.002,1397.667=5.002,1398.000=2.002,1398.333=1.002,1398.667=300.002;
#STOPS:294.000=0.060
,294.500=0.020
,295.000=0.060
,356.000=0.020
,356.500=0.020
,357.000=0.020
,412.000=0.080
,414.063=0.080
,414.938=0.080
,564.000=2.000
,724.188=0.100
,724.313=0.100
,724.563=0.100
,724.688=0.100
,1106.500=0.200
,1107.500=0.200
,1119.500=0.200
,1120.500=0.200
,1132.500=0.200
,1133.500=0.200
,1134.500=0.200
,1140.500=0.200
,1141.500=0.200
,1142.500=0.200
;
#BGCHANGES:;
// cache tags:
#FIRSTBEAT:0.000;
#LASTBEAT:1383.333;
#SONGFILENAME:Songs/nhac/Max 888 (Digital Ultramix)/888.sm;
#HASMUSIC:1;
#HASBANNER:1;
#MUSICLENGTH:156.716;
// end cache tags

//---------------dance-single - ----------------
#NOTES:
     dance-single:
     :
     Challenge:
     13:
     0.292,0.684,0.064,0.179,0.198,282.000,10.000,28.000,0.000,2.000:
0220
0000
0000
0000
0000
0000
0000
0000
0000
0000
0000
0000
0000
0000
0000
0000
0000
0330
0000
0000
0000
0000
0000
0000
1000
0000
0000
0000
0000
0000
0000
0000
0000
0000
0000
0000
0000
0000
0000
0000
0100
0000
0000
0000
0000
0000
0000
0000
0000
0000
0000
0000
0000
0000
0000
0000
0000
0000
0000
0000
0000
0000
0000
0000
,
0001
0000
0010
0100
0000
0100
0000
0000
,
0010
0000
0100
1000
0000
1000
0000
0000
,
0001
0000
0010
0100
0000
0100
0000
1000
,
0000
0100
0010
0001
0010
0100
0000
0100
,
0000
0100
1000
0100
1000
0100
0000
0100
,
0000
0010
0001
0010
0001
0010
0000
0010
,
0000
0100
1000
0000
0100
0000
1000
0000
,
0100
0010
0100
0010
0100
0000
0010
0000
,
0100
0010
0100
0010
0100
0000
0001
0000
,
0010
0100
1000
0100
,
0010
0001
0010
0100
,
1000
0100
0010
0001
,
0010
0100
1000
0100
,
0010
0001
0010
0100
,
1000
0100
0010
0001
,
0010
0100
1000
0010
,
0100
0010
1000
0001
,
0100
0010
1000
0001
,
1000
0001
1000
0001
,
1000
0001
1000
0100
,
0010
0001
0010
0100
,
0010
0100
1000
0100
,
0010
0001
0010
0100
,
0000
0000
1000
0100
0010
0000
0001
0010
,
0100
0000
0000
0000
1000
0000
0000
0000
0000
0100
0000
0000
0000
0000
1000
0000
,
0000
0000
0000
0000
0000
0000
0000
0000
0001
0000
0000
0000
0000
0010
0000
0000
,
0000
0001
0000
0000
0000
0000
0100
0000
,
0000
0010
0000
0000
0000
0000
0100
0000
0000
0000
0000
0000
0000
0000
0000
0000
,
1000
0000
0000
0000
0000
0100
0000
0000
0000
0000
1000
0000
0000
0000
0000
0000
,
0000
0000
0000
0000
0010
0000
0000
0000
0000
0100
0000
0000
0000
0000
0010
0000
,
0000
0000
0000
0000
0000
0000
0000
0000
1000
0000
0000
0000
0000
0100
0000
0000
,
0000
1000
0000
0000
0000
0000
0001
0000
,
0000
0010
0000
0000
0000
0000
0001
0000
0000
0000
0000
0000
0000
0000
0000
0000
,
1000
0000
0000
0000
0000
0100
0000
0000
0000
0010
0000
0000
0000
0000
0001
0000
,
0000
0000
0000
1000
0000
0000
0000
0000
0100
0000
0000
0000
0000
0010
0000
0000
,
0000
0000
0001
0000
0000
0000
0000
1000
0000
0000
0000
0000
0100
0000
0000
0000
,
0000
0010
0000
0000
0000
0000
0001
0000
0000
0000
0000
1000
0000
0000
0000
0000
,
0100
0000
0000
0000
0000
0010
0000
0000
0000
0000
0001
0000
0000
0000
0000
1000
,
0000
0000
0000
0000
0100
0000
0000
0000
0000
0010
0000
0000
0000
0000
0001
0000
,
0000
0000
0000
1000
0000
0000
0000
0000
0100
0000
0000
0000
0000
0010
0000
0000
,
0000
0000
0001
0000
0000
0000
0000
1000
0000
0000
0000
0000
0100
0000
0000
0000
,
0000
0010
0000
0000
0000
0000
0001
0000
0000
0000
0000
1000
0000
0000
0000
0000
,
0100
0000
0000
0000
0000
0010
0000
0000
0000
0000
0001
0000
0000
0000
0000
1000
,
0000
0000
0000
0000
0000
0100
0000
0000
0000
0000
0000
0010
0000
0000
0000
0000
,
0000
0001
0000
0000
0000
0000
0000
0000
1000
0000
0000
0000
0000
0000
0000
0100
,
0000
0000
0000
0000
0000
0000
0010
0000
0000
0000
0000
0000
0000
0001
0000
0000
,
0000
0000
0000
0000
0000
1000
0000
0000
0000
0000
0000
0000
0000
0100
0000
0000
,
0000
0000
0000
0000
0000
0010
0000
0000
0000
0000
0000
0000
0000
0001
0000
0000
,
0000
0000
0000
0000
0000
0000
1000
0000
0000
0000
0000
0000
0000
0000
0000
0100
,
0000
0000
0010
0000
,
0000
0001
0000
0000
0000
0000
0000
0000
0000
0000
1000
0000
0000
0000
0000
0000
,
0000
0000
0000
0100
0000
0000
0000
0000
0000
0000
0000
0000
0010
0000
0000
0000
,
0000
0000
0000
0000
0000
0001
0000
0000
0000
0000
0000
0000
0000
0000
1000
0000
,
0000
0000
0000
0000
0000
0000
0000
0100
0000
0000
0000
0000
0000
0000
0000
0000
,
0010
0000
0000
0000
0000
0000
0000
0000
0000
0001
0000
0000
0000
0000
0000
0000
,
0000
0000
1000
0000
0000
0000
0000
0000
0000
0000
0000
0100
0000
0000
0000
0000
,
0000
0000
0000
0000
0010
0000
0000
0000
0000
0000
0000
0000
0000
0001
0000
0000
,
0000
0000
0000
0000
0000
0000
1000
0000
0000
0000
0000
0000
0000
0000
0000
0100
,
0000
0000
0010
0000
,
0000
0001
0000
0000
1000
0000
0000
0000
0000
0000
0001
0000
0000
1000
0000
0000
,
0000
0000
0000
0001
0000
0000
1000
0000
0000
0000
0000
0000
0001
0000
0000
1000
,
0000
0000
0000
0001
2000
0000
0000
0000
0000
0000
0000
0000
0000
0000
0000
0000
,
0000
0000
0000
0000
0000
0000
0000
0000
0000
0000
0000
0000
0200
0000
0000
0000
0000
0000
0000
0000
0000
0000
0000
0000
0000
3000
0000
0000
0000
0000
0000
0000
0000
0000
0000
0000
0000
0000
0000
0000
0000
0000
0000
0000
0000
0000
0000
0000
,
0000
0000
0000
0000
0000
0000
0000
0000
0000
0000
0000
0000
0000
0000
0000
0000
0000
0000
0000
0000
0000
0000
0000
0000
0020
0000
0000
0000
0000
0000
0000
0000
0000
0000
0000
0300
0000
0000
0000
0000
0000
0000
0000
0000
0000
0000
0000
0000
,
0000
0000
0000
0000
0000
0000
0000
0000
0000
0000
0000
0000
0002
0000
0000
0030
,
0000
0000
0000
0000
,
0020
0000
0000
0000
0000
0000
0000
0003
0000
0000
0000
0000
0000
0000
0000
0000
0000
0000
0000
0000
0000
0000
0000
0000
0000
0000
0000
0000
0000
0000
0000
0000
0000
0000
0000
0000
0000
0000
0000
0000
0000
0000
0000
0000
0000
0000
0000
0000
,
0000
0000
0000
0000
0000
0000
0000
0000
0000
0000
0000
0000
0200
0000
0000
0000
0000
0030
0000
0000
0000
0000
0000
0000
0000
0000
0000
0000
0000
0000
0000
0000
0000
0000
0000
0000
0000
0000
0000
0000
0000
0000
0000
0000
0000
0000
0000
0000
,
0000
0000
2000
0300
,
0000
0000
0000
0000
0000
0000
0000
0000
0000
0000
0000
0000
0000
0000
0000
0000
0000
0000
3220
0000
0000
0000
0000
0330
,
1000
0000
0000
0001
0000
0000
1000
0000
0000
0001
0000
0000
1000
0000
0000
0001
0000
0000
1000
0000
0000
0001
0000
0000
0220
0330
0000
1000
0000
0000
0001
0000
0000
1000
0000
0000
0001
0000
0000
1000
0000
0000
0001
0000
0000
1000
0000
0000
,
0001
0000
1000
0000
0001
0000
0000
0000
2002
3013
0000
0000
0000
0000
0010
0000
0000
0000
0000
0000
0000
0000
1000
0000
0000
0000
0100
0000
0010
0000
0000
0000
,
0002
0000
0000
0000
0000
0000
0000
0000
0000
0000
0000
0000
0000
0000
0000
0000
0003
0000
0000
0000
0000
0000
0000
0000
0000
0000
0000
0000
0000
0000
0000
0000
0011
0000
0000
0011
0000
0000
0000
0000
0000
0000
0000
0000
0000
1100
0000
0000
1100
0000
0000
0000
0000
0000
0000
0000
0000
0000
0000
0000
0000
0000
0000
0000
,
0000
0000
1000
0000
0000
0001
0000
0000
,
1000
0000
0000
0000
0000
0000
0220
0330
,
0000
0002
0003
0000
1000
0000
1000
0000
,
1000
0000
0000
0010
0000
0000
0100
0000
,
0000
0010
0000
0000
1000
0000
0000
0020
,
0000
0000
0030
0000
0200
0000
0300
2000
,
0000
3000
0000
0000
0010
0000
0010
0000
,
0010
0000
0000
0100
0000
0000
1000
0000
,
0000
0000
1000
0000
0000
0001
0000
0000
,
1000
0000
0000
0000
0000
0000
0220
0330
,
0000
0002
0003
0000
1000
0000
1000
0000
,
1000
0000
0000
0010
0000
0000
0100
0000
,
0000
0010
0000
0000
1000
0000
0000
0020
,
0000
0000
0030
0000
0200
0000
0300
2000
,
0000
3000
0000
0000
0010
0000
0010
0000
,
0010
0000
0000
0100
0000
0000
0000
0000
;

//---------------dance-single - Copied from----------------
#NOTES:
     dance-single:
     Copied from:
     Edit:
     13:
     1.000,1.000,0.345,0.479,0.597,1369.000,54.000,75.000,0.000,3.000:
0220
0000
0000
0000
0000
0000
0000
0000
0000
0000
0000
0000
0000
0000
0000
0000
0000
0330
0000
0000
0000
0000
0000
0000
1000
0000
0000
0000
0000
0000
0000
0000
0000
0000
0000
0000
0000
0000
0000
0000
0100
0000
0000
0000
0000
0000
0000
0000
0000
0000
0000
0000
0000
0000
0000
0000
0000
0000
0000
0000
0000
0000
0000
0000
,
0001
0000
0010
0100
0000
0100
0000
0000
,
0010
0000
0100
1000
0000
1000
0000
0000
,
0001
0000
0010
0100
0000
0100
0000
1000
,
0000
0100
0010
0001
0010
0100
0000
0100
,
0000
0100
1000
0100
1000
0100
0000
0100
,
0000
0010
0001
0010
0001
0010
0000
0010
,
0000
0100
1000
0000
0100
0000
1000
0000
,
0100
0010
0100
0010
0100
0000
0010
0000
,
0100
0010
0100
0010
0100
0000
0001
0000
,
0010
0100
1000
0100
,
0010
0001
0010
0100
,
1000
0100
0010
0001
,
0010
0100
1000
0100
,
0010
0001
0010
0100
,
1000
0100
0010
0001
,
0010
0100
1000
0010
,
0100
0010
1000
0001
,
0100
0010
1000
0001
,
1000
0001
1000
0001
,
1000
0001
1000
0100
,
0010
0001
0010
0100
,
0010
0100
1000
0100
,
0010
0001
0010
0100
,
0000
0000
1000
0100
0010
0000
0001
0010
,
0100
0000
0000
0000
1000
0000
0000
0000
0000
0100
0000
0000
0000
0000
1000
0000
,
0000
0000
0000
0000
0000
0000
0000
0000
0001
0000
0000
0000
0000
0010
0000
0000
,
0000
0001
0000
0000
0000
0000
0100
0000
,
0000
0010
0000
0000
0000
0000
0100
0000
0000
0000
0000
0000
0000
0000
0000
0000
,
1000
0000
0000
0000
0000
0100
0000
0000
0000
0000
1000
0000
0000
0000
0000
0000
,
0000
0000
0000
0000
0010
0000
0000
0000
0000
0100
0000
0000
0000
0000
0010
0000
,
0000
0000
0000
0000
0000
0000
0000
0000
1000
0000
0000
0000
0000
0100
0000
0000
,
0000
1000
0000
0000
0000
0000
0001
0000
,
0000
0010
0000
0000
0000
0000
0001
0000
0000
0000
0000
0000
0000
0000
0000
0000
,
1000
0000
0000
0000
0000
0100
0000
0000
0000
0010
0000
0000
0000
0000
0001
0000
,
0000
0000
0000
1000
0000
0000
0000
0000
0100
0000
0000
0000
0000
0010
0000
0000
,
0000
0000
0001
0000
0000
0000
0000
1000
0000
0000
0000
0000
0100
0000
0000
0000
,
0000
0010
0000
0000
0000
0000
0001
0000
0000
0000
0000
1000
0000
0000
0000
0000
,
0100
0000
0000
0000
0000
0010
0000
0000
0000
0000
0001
0000
0000
0000
0000
1000
,
0000
0000
0000
0000
0100
0000
0000
0000
0000
0010
0000
0000
0000
0000
0001
0000
,
0000
0000
0000
1000
0000
0000
0000
0000
0100
0000
0000
0000
0000
0010
0000
0000
,
0000
0000
0001
0000
0000
0000
0000
1000
0000
0000
0000
0000
0100
0000
0000
0000
,
0000
0010
0000
0000
0000
0000
0001
0000
0000
0000
0000
1000
0000
0000
0000
0000
,
0100
0000
0000
0000
0000
0010
0000
0000
0000
0000
0001
0000
0000
0000
0000
1000
,
0000
0000
0000
0000
0000
0100
0000
0000
0000
0000
0000
0010
0000
0000
0000
0000
,
0000
0001
0000
0000
0000
0000
0000
0000
1000
0000
0000
0000
0000
0000
0000
0100
,
0000
0000
0000
0000
0000
0000
0010
0000
0000
0000
0000
0000
0000
0001
0000
0000
,
0000
0000
0000
0000
0000
1000
0000
0000
0000
0000
0000
0000
0000
0100
0000
0000
,
0000
0000
0000
0000
0000
0010
0000
0000
0000
0000
0000
0000
0000
0001
0000
0000
,
0000
0000
0000
0000
0000
0000
1000
0000
0000
0000
0000
0000
0000
0000
0000
0100
,
0000
0000
0010
0000
,
0000
0001
0000
0000
0000
0000
0000
0000
0000
0000
1000
0000
0000
0000
0000
0000
,
0000
0000
0000
0100
0000
0000
0000
0000
0000
0000
0000
0000
0010
0000
0000
0000
,
0000
0000
0000
0000
0000
0001
0000
0000
0000
0000
0000
0000
0000
0000
1000
0000
,
0000
0000
0000
0000
0000
0000
0000
0100
0000
0000
0000
0000
0000
0000
0000
0000
,
0010
0000
0000
0000
0000
0000
0000
0000
0000
0001
0000
0000
0000
0000
0000
0000
,
0000
0000
1000
0000
0000
0000
0000
0000
0000
0000
0000
0100
0000
0000
0000
0000
,
0000
0000
0000
0000
0010
0000
0000
0000
0000
0000
0000
0000
0000
0001
0000
0000
,
0000
0000
0000
0000
0000
0000
1000
0000
0000
0000
0000
0000
0000
0000
0000
0100
,
0000
0000
0010
0000
,
0000
0001
0000
0000
1000
0000
0000
0000
0000
0000
0001
0000
0000
1000
0000
0000
,
0000
0000
0000
0001
0000
0000
1000
0000
0000
0000
0000
0000
0001
0000
0000
1000
,
0000
0000
0000
0001
2000
0000
0000
0000
0000
0000
0000
0000
0000
0000
0000
0000
,
0000
0000
0000
0000
0000
0000
0000
0000
0000
0000
0000
0000
0200
0000
0000
0000
0000
0000
0000
0000
0000
0000
0000
0000
0000
3000
0000
0000
0000
0000
0000
0000
0000
0000
0000
0000
0000
0000
0000
0000
0000
0000
0000
0000
0000
0000
0000
0000
,
0000
0000
0000
0000
0000
0000
0000
0000
0000
0000
0000
0000
0000
0000
0000
0000
0000
0000
0000
0000
0000
0000
0000
0000
0020
0000
0000
0000
0000
0000
0000
0000
0000
0000
0000
0300
0000
0000
0000
0000
0000
0000
0000
0000
0000
0000
0000
0000
,
0000
0000
0000
0000
0000
0000
0000
0000
0000
0000
0000
0000
0002
0000
0000
0030
,
0000
0000
0000
0000
,
0020
0000
0000
0000
0000
0000
0000
0003
0000
0000
0000
0000
0000
0000
0000
0000
0000
0000
0000
0000
0000
0000
0000
0000
0000
0000
0000
0000
0000
0000
0000
0000
0000
0000
0000
0000
0000
0000
0000
0000
0000
0000
0000
0000
0000
0000
0000
0000
,
0000
0000
0000
0000
0000
0000
0000
0000
0000
0000
0000
0000
0200
0000
0000
0000
0000
0030
0000
0000
0000
0000
0000
0000
0000
0000
0000
0000
0000
0000
0000
0000
0000
0000
0000
0000
0000
0000
0000
0000
0000
0000
0000
0000
0000
0000
0000
0000
,
0000
0000
2000
0300
,
0000
0000
0000
0000
0000
0000
0000
0000
0000
0000
0000
0000
0000
0000
0000
0000
0000
0000
0000
0000
0000
0000
0000
0000
0000
0000
0000
0000
0000
0000
0000
0000
0000
0000
0000
0000
0100
3000
0000
0000
0000
0000
0000
0000
0000
0000
0000
0000
,
0000
0000
0000
0000
0000
0000
0010
0000
0000
0000
0000
0100
0000
0000
0000
0000
,
0010
0000
0000
0000
0000
0000
0000
0000
0000
0000
0001
0000
0000
0000
0000
1000
,
0000
0000
0001
0000
0000
0000
0000
0010
,
0000
0000
0000
0100
0000
0000
0000
0000
0010
0000
0000
0000
0000
0000
0000
0000
,
0000
0000
1000
0000
0000
0000
0000
0001
0000
0000
0000
0000
1000
0000
0000
0000
,
0000
0000
0000
0000
0000
0000
0100
0000
0000
0000
0000
0010
0000
0000
0000
0000
,
0100
0000
0000
0000
0000
0000
0000
0000
0000
0000
0001
0000
0000
0000
0000
1000
,
0000
0000
0001
0000
0000
0000
0000
0010
,
0000
0000
0000
0100
0000
0000
0000
0000
0010
0000
0000
0000
0000
0000
0000
0000
,
0000
0000
0001
0000
0000
0000
0000
1000
0000
0000
0000
0000
0001
0000
0000
0000
,
0000
0000
0000
0000
0000
0000
0010
0000
0000
0000
0000
0100
0000
0000
0000
0000
,
0010
0000
0000
0000
0000
0000
0000
0000
0000
0000
0001
0000
0000
0000
0000
0010
,
0000
0000
0001
0000
0000
0000
0000
0010
,
0000
0000
0000
0100
0000
0000
0000
0000
0010
0000
0000
0000
0000
0000
0000
0000
,
0000
0000
1000
0000
0000
0000
0000
0100
0000
0000
0000
0000
1000
0000
0000
0000
,
0000
0000
0000
0000
0000
0000
0100
0000
0000
0000
0000
0010
0000
0000
0000
0000
,
0100
0000
0000
0000
0000
0000
0000
0000
0000
0000
0010
0000
0000
0000
0000
0100
,
0000
0000
0010
0000
0000
0000
0000
0001
,
0000
0000
0000
0010
0000
0000
0000
0000
0001
0000
0000
0000
0000
0000
0000
0000
,
0000
0000
1000
0000
0000
0000
0000
0100
0000
0000
0000
0000
1000
0000
0000
0000
,
0000
0000
0000
0000
0000
0000
0100
0000
0000
0000
0000
0001
0000
0000
0000
0000
,
1000
0000
0000
0000
0000
0000
0000
0000
0000
0000
0100
0000
0000
0000
0000
1000
,
0000
0000
0010
0000
0000
0000
0000
0010
,
0000
0000
0000
0100
0000
0000
0000
0000
0010
0000
0000
0000
0000
0000
0000
0000
,
0000
0000
0001
0000
0000
0000
0000
0010
0000
0000
0000
0000
0001
0000
0000
0000
,
0000
0000
0000
0000
0000
0000
0010
0000
0000
0000
0000
1000
0000
0000
0000
0000
,
1000
0000
0000
0000
0000
0000
0000
0000
0000
0000
0100
0000
0000
0000
0000
0010
,
0000
0000
0100
0000
0000
0000
0000
0001
,
0000
0000
0000
0010
0000
0000
0000
0000
0001
0000
0000
0000
0000
0000
0000
0000
,
0000
0000
0000
0000
0000
0000
1000
0000
0000
0000
0000
0000
0000
0000
0000
0000
0000
0000
0000
0000
0000
0100
0000
0000
0000
0000
0000
0000
0000
0000
0000
0000
0000
0000
0000
0000
0220
0000
0000
0000
0000
0000
0000
0000
0000
0000
0330
0000
,
1000
0000
0000
0001
0000
0000
1000
0000
0000
0001
0000
0000
1000
0000
0000
0001
0000
0000
1000
0000
0000
0001
0000
0000
0220
0330
0000
1000
0000
0000
0001
0000
0000
1000
0000
0000
0001
0000
0000
1000
0000
0000
0001
0000
0000
1000
0000
0000
,
0001
0000
1000
0000
0001
0000
0000
0000
2002
3013
0000
0000
0000
0000
0010
0000
0000
0000
0000
0000
0000
0000
1000
0000
0000
0000
0100
0000
0010
0000
0000
0000
,
0002
0000
0000
0000
0000
0000
0000
0000
0000
0000
0000
0000
0000
0000
0000
0000
0003
0000
0000
0000
0000
0000
0000
0000
0000
0000
0000
0000
0000
0000
0000
0000
0011
0000
0000
0011
0000
0000
0000
0000
0000
0000
0000
0000
0000
1100
0000
0000
1100
0000
0000
0000
0000
0000
0000
0000
0000
0000
0000
0000
0000
0000
0000
0000
,
0000
0000
0000
1000
,
0001
1000
0001
0000
1000
0001
1000
0000
,
0001
1000
0001
0000
1000
0001
1000
0000
,
0002
1000
0010
0000
1000
0010
1000
0000
,
0010
1000
0010
0000
1000
0010
1000
0000
,
0010
1000
0010
0000
1000
0010
1000
0000
,
0003
0000
1000
0000
0000
0001
0000
0000
,
1000
0000
0000
0000
0000
0000
0220
0330
,
0000
0002
0003
0000
1000
0000
1000
0000
,
1000
0000
0000
0010
0000
0000
0100
0000
,
0000
0010
0000
0000
1000
0000
0000
0020
,
0000
0000
0030
0000
0200
0000
0300
2000
,
0000
3000
0000
0000
0010
0000
0010
0000
,
0010
0000
0000
0100
0000
0000
1000
0000
,
0100
0010
0001
0010
,
0100
1000
0100
0010
,
0001
0010
0100
1000
,
0100
0000
0010
0000
0001
0010
0001
0010
,
0001
0010
0001
0010
0100
0010
0100
0010
,
0100
0010
0100
0010
1000
0100
0010
0001
,
0010
0100
1000
0100
0022
0000
0033
0000
,
0100
0000
0000
1000
0000
0000
0100
0000
,
0010
0100
0010
0001
,
0010
0100
1000
0100
,
0100
0000
0000
0010
0000
0000
0100
0000
,
0000
0001
0000
0000
0010
0000
0100
0000
,
1000
0100
0010
0001
,
0010
0100
1000
0001
,
1000
0001
0100
0010
,
0100
0010
1000
0001
,
1000
0001
0110
0110
,
1001
0000
1001
0000
1000
0000
1000
0001
,
1000
0001
0100
0010
0100
0010
1000
0100
,
0010
0001
1000
0100
0010
0001
0010
0100
,
1000
0100
0010
0001
0010
0100
1000
0100
,
0010
0001
0220
0000
1331
0000
1001
0000
,
0000
0000
0000
1001
,
1001
1000
0000
0001
0000
1000
0000
0001
,
0000
0100
0000
0010
0000
0100
0000
0010
,
0000
0100
0000
1000
0000
0100
0000
0010
,
0000
0100
0000
0010
0000
0100
0000
0000
,
0000
0000
0000
0100
0000
0000
0000
0010
0000
0000
0100
0000
0000
0010
0000
0000
0000
0000
0001
0000
0000
0001
0000
0000
,
0001
0000
0000
0000
0010
0000
0100
0000
1000
0000
0100
0000
0010
0000
0001
0000
0010
0000
0100
0000
1000
0000
0100
0000
0010
0000
0001
0000
0010
0000
0000
0000
0000
0000
0000
0000
1000
0000
0000
0100
0000
0000
0000
0000
0000
0100
0000
0000
,
0000
0000
0000
0100
0000
0000
0010
0000
0000
0001
0000
0000
0010
0000
0100
0000
1000
0000
0100
0000
0010
0000
0001
0000
0010
0000
0000
0000
0010
0000
0000
0000
0100
0000
0000
0000
0100
0000
0000
0000
0100
0000
0000
0000
0010
0000
0000
0000
,
0100
1000
0100
0020
0130
1000
0100
0010
0001
0220
2330
3000
,
0100
0110
0010
0100
1000
0000
1000
0000
1000
0000
0200
0310
,
1000
0100
0010
0001
0010
0100
1000
0100
,
0010
0000
0000
0001
0000
0000
0010
0000
0000
0100
0000
0000
1000
0000
0000
0100
0000
0000
1000
0000
0110
0000
0000
0000
,
0000
0000
0110
0000
0000
0000
0110
0000
0000
0000
0110
0000
,
1000
0100
0010
0000
0001
0010
0000
0001
0010
0000
0100
0010
,
0100
0000
0000
0110
0000
0000
0000
0000
0110
0000
0000
0000
,
0000
0110
0000
0000
0000
0000
0110
0000
0000
0000
0000
0000
,
0110
0100
1000
0100
0010
0001
0010
0100
,
1000
0100
0010
0001
0110
0100
1000
0100
,
1000
0100
1000
0100
0110
0001
0010
0001
,
0010
0001
0010
0100
0010
1000
0100
0010
,
0001
0010
0100
0010
0100
1000
0100
0010
,
0001
0010
0000
0100
0000
1000
0000
0100
,
0000
0010
0100
0000
1000
0000
0100
0000
,
0100
0010
0100
1000
,
0100
0010
0001
0010
,
0100
1000
0100
0010
,
0001
0010
0100
1000
,
0100
0010
0001
0010
,
0100
1000
0100
0010
,
0001
0010
0100
1000
,
0100
0010
0001
0010
,
0100
1000
0100
0010
,
0001
0010
0100
1000
,
0001
1000
0100
0010
,
0001
0000
0010
0000
0100
0010
0100
1000
,
0100
0010
0100
0010
,
1000
0100
0010
0010
,
0100
0010
0100
0010
,
0100
0010
0100
1000
,
0001
0000
1000
0000
0001
1000
0001
1000
,
0001
0010
0100
0010
,
0110
0110
0110
0000
1001
1001
1001
0000
1000
0000
0000
0000
0000
0000
0000
0000
0001
0000
0000
0000
0000
0000
0000
0000
1000
0000
0000
0000
0000
0000
0000
0000
,
0001
0100
0010
0100
,
0010
1000
0100
0010
0001
0010
0100
1000
,
0100
0010
0001
0010
0001
0010
0100
1000
,
0100
0001
0010
0100
1000
0010
0001
0010
,
1000
0100
0010
0001
1000
0001
0010
0100
,
1000
0100
0010
0001
0010
0100
1000
0100
,
0010
0001
0010
0100
1000
0100
0010
0001
,
0010
0001
0010
0100
1000
0100
1000
0100
,
0010
0001
0010
1000
0100
0010
0001
1000
,
0100
1000
0100
0000
0010
0001
0000
0010
,
0100
0000
1000
0100
0000
0010
0001
0000
,
0010
0000
0001
0000
0010
0001
0000
0000
0010
0001
0000
0000
0010
0001
0000
0000
,
0010
0001
0000
0000
0010
0001
0010
0000
0100
0000
2010
0000
0100
0000
3010
0000
,
0100
0010
0100
0010
0220
0000
0330
0000
,
0220
0330
0220
0330
,
0220
0330
0220
0330
,
1000
0000
0100
0020
0000
0031
0010
0100
,
1000
0000
0000
0000
0000
0000
0000
0000
2000
0000
0000
0000
3000
0000
0000
0200
0000
0000
0000
0000
0000
0020
0000
0000
,
0000
0330
0020
0000
,
0030
0000
0020
0000
0000
0200
0030
0000
,
0000
0000
0300
0000
1000
0100
0020
0000
0000
0000
0000
0000
0000
0000
0000
0000
,
0030
0000
0000
0000
0000
0000
0000
0000
0000
0000
0000
0000
0000
0000
0220
0000
0000
0000
0330
0000
1001
0220
0000
0000
0330
0000
0000
0000
1000
0000
0000
0000
0000
0000
0000
0000
0001
0000
0000
0000
0000
0000
0000
0000
1000
0000
0000
0000
,
0000
0001
0000
1000
0000
0001
0000
1000
0000
0001
0000
1000
,
0000
0001
0000
1000
0000
0001
0000
0100
0000
0010
0000
0100
,
0000
0001
0000
1000
0000
0100
0000
0010
0000
0001
0000
0010
,
0000
0100
0000
1000
0000
0100
0000
0010
0000
0100
0000
1000
,
0000
0100
0000
0010
0000
0001
0000
0010
0000
0100
0000
1000
,
0000
0100
0000
0010
0000
0001
0000
0010
0000
0100
0000
1000
,
0000
0100
0000
0010
0000
0220
0000
0000
0000
0000
0000
0000
,
0000
0000
0000
0000
,
0000
0000
0000
0000
,
0000
0000
0000
0000
,
0330
0000
0000
0000
,
0000
0000
0000
0000
,
0000
1000
0000
0000
0000
1000
0000
0100
,
0000
0010
0000
0001
0000
0010
0000
0100
,
0000
0100
0000
0000
0000
0100
0000
1000
,
0000
0100
0000
0010
0000
0001
0000
0010
,
0000
0000
0000
0010
0000
0100
0000
1000
,
0000
0100
0000
0010
0000
0001
0000
1001
,
0000
0000
0000
1001
0000
0000
0000
1000
,
0000
0000
0000
0100
0000
0010
0000
0001
,
0000
0010
0000
0100
0000
1000
0000
0100
,
0000
0010
0000
0001
0000
0000
0000
0001
,
0000
0010
0000
0100
0000
1000
0000
0100
,
0000
0010
0000
0100
0000
0010
0000
0100
,
0000
0010
0000
0100
0000
1000
0000
0100
,
0000
0010
0000
0001
0000
0010
0000
0100
,
0000
1000
0000
0100
0000
0010
0000
1000
,
0000
0100
0000
1000
0000
0100
0000
0001
,
0000
0010
0000
0100
0000
1000
0000
0001
,
0000
1000
0000
0100
0000
0010
0000
0001
,
0000
0010
0000
0100
0000
1000
0000
0100
,
0000
0010
0000
0001
0000
0010
0000
0100
,
0000
1000
0000
0001
0000
1000
0000
0100
,
0000
0010
0000
0001
0000
0010
0000
0100
,
0000
1000
0000
0100
0000
0010
0000
0001
,
0000
0010
0000
0100
0000
1000
0000
0100
,
0000
1000
0000
0100
0000
0010
0000
0100
,
0000
0010
0000
0100
0000
0010
0000
0100
,
0000
0010
0000
0100
0000
1000
0000
0100
,
0000
0010
0000
1000
0000
0001
0000
0010
,
0000
0100
0000
1000
0000
0100
0000
0010
,
0000
0001
0000
0010
0000
0100
0000
1000
,
0000
0100
0000
0010
0000
0001
0000
0010
,
0000
0100
0000
1000
0000
0100
0000
0010
,
0000
0001
0000
1000
0000
0001
0000
1000
,
0000
0001
0000
1000
0000
0100
0000
0010
,
0000
0100
0000
0010
0000
0100
0000
0010
,
0000
1000
0000
0100
0000
0010
0000
0001
,
0000
0010
0000
0100
0000
1000
0000
1000
,
0000
1000
0000
0100
0000
0010
0000
0100
,
0000
0010
0000
0100
0000
0010
0000
0100
,
0000
1000
0000
0100
0000
0010
0000
0001
,
0000
0010
0000
0100
0000
0010
0000
0100
,
0000
0010
0000
0001
0000
0010
0000
0100
,
0000
0010
0000
0100
0000
1000
0000
0100
,
0000
0010
0000
0100
0000
1000
0000
0100
,
0000
0010
0000
0001
0000
0010
0000
0100
,
0000
0010
0000
0100
0000
0010
0000
0100
,
0000
1000
0000
0100
0000
0010
0000
0001
,
0000
0010
0000
0100
0000
1000
0000
0100
,
0000
0010
0000
1000
0000
0001
0000
1000
,
0000
0010
0000
0100
0000
0010
0000
1000
,
0000
0010
0000
0001
0000
0010
0000
0100
,
0000
1000
0000
0010
0000
0001
0000
0010
,
0000
1000
0000
0100
0000
0010
0000
0100
,
0000
0001
0000
0010
0000
0100
0000
1000
,
0000
0001
0000
0010
0000
0100
0000
1000
,
0000
0100
0000
0010
0000
0001
0000
0010
,
0000
2002
0000
0000
0000
0000
0000
0000
,
0000
0000
0000
0000
,
0000
0000
0000
0000
0000
0000
0000
3003
,
0100
0010
0100
0010
,
1000
0000
0100
0000
0100
0000
0002
1003
,
0002
2003
3002
0103
1000
0000
0100
0000
,
0010
0001
0010
0100
,
1000
0000
0100
0000
0010
0000
1000
0002
,
1003
0002
1003
0000
0100
0000
0010
0000
,
0001
0010
0100
1000
,
0100
0010
0001
0010
,
1000
0002
1003
0002
1003
0002
1003
0000
,
0100
0010
0001
0010
,
0100
0002
0103
0002
0103
0002
0003
0000
,
1000
0100
0010
0001
,
0010
0100
1000
0100
,
1000
0100
1000
0100
,
0100
0010
0001
0010
,
0100
1000
0100
0010
,
0001
0010
0100
1000
,
0100
0010
0001
0010
,
0100
1000
0100
0010
,
0001
0010
0100
1000
,
0100
0010
0001
0010
,
0100
1000
0100
0010
,
0100
1000
0100
0010
,
0001
0010
0100
0010
,
0100
0010
0100
0010
,
0100
0010
0100
0010
,
0100
0010
0100
0001
,
1000
0001
1000
0001
,
1000
0001
1000
0001
,
1000
0000
0001
0000
1000
0001
1000
0001
,
1000
0001
1001
0000
0220
0000
0330
0000
,
1000
0100
0010
0001
,
0010
0100
1000
0100
,
0010
0001
0010
0100
,
0010
0100
1000
0100
,
0010
0001
0000
1000
,
0100
0010
0001
0010
,
0100
1000
0100
0010
,
0010
0100
0010
0100
,
1000
0100
0010
0001
,
0000
1000
0100
0010
,
0001
0010
0100
1000
,
0100
0010
0001
0010
,
0100
1000
0100
0010
,
0001
0000
1000
0100
,
0010
0001
0010
0010
,
0010
0000
1000
0100
,
0010
0001
0010
0100
,
1000
0100
1000
0100
,
0010
0001
0010
0100
,
1000
0100
0010
0001
,
0010
0100
0010
0100
,
0010
1000
0100
0010
,
0001
0010
0100
1000
,
0100
0010
0001
0010
,
0100
1000
0100
0010
,
0001
0010
0100
0010
,
0100
0010
0100
0010
,
1000
0100
0010
0001
,
0010
0100
0010
0100
,
0010
0100
1000
0001
,
1000
0000
0000
0001
0000
0000
0001
0000
0000
0000
0000
0001
,
0000
0000
0000
0000
0001
0000
0000
0000
0000
0000
0000
0000
,
1000
0000
0000
0000
0000
1000
0000
0000
0000
0000
1000
0000
,
0000
0000
0000
0000
,
0000
0001
0000
0000
0000
0000
0001
0000
0000
0000
0000
0001
,
0000
0000
0000
0000
1000
0000
0000
0000
0000
1000
0000
0000
,
0000
0000
1000
0000
0000
0000
0000
2002
0000
0000
0000
0000
,
0000
0000
0000
0000
,
0000
0000
0000
0000
,
0000
0000
0000
0000
0000
0000
0000
0000
0000
0000
3003
0000
;
